#TITLE:Remodeling;
#SUBTITLE:Silent Hill 4;
#ARTIST:Akira Yamaoka;
#TITLETRANSLIT:;
#SUBTITLETRANSLIT:;
#ARTISTTRANSLIT:;
#CREDIT:;
#BANNER:Remodeling.PNG;
#BACKGROUND:Remodeling-bg.PNG;
#LYRICSPATH:;
#CDTITLE:!danserTitle.png;
#MUSIC:Remodeling.mp3;
#OFFSET:-0.305;
#SAMPLESTART:19.372;
#SAMPLELENGTH:19.420;
#SELECTABLE:YES;
#BPMS:0.000=100.430,32.000=100.600,64.000=100.500,208.000=100.550,240.000=100.500;
#STOPS:;
#BGCHANGES:;
// cache tags:
#FIRSTBEAT:0.000;
#LASTBEAT:287.750;
#SONGFILENAME:Songs/Music V.I.P ^_^/Remodeling (Danser)/Remodeling.sm;
#HASMUSIC:1;
#HASBANNER:1;
#MUSICLENGTH:174.680;
// end cache tags

//---------------dance-single - ----------------
#NOTES:
     dance-single:
     :
     Hard:
     12:
     0.794,0.906,0.842,0.624,0.810,715.000,147.000,109.000,0.000,3.000:

0101
0010
0101
1000
0001
0100
0001
0100
,
0201
0301
0210
0301
,
1010
0001
1010
0100
1000
0010
1000
0010
,
1020
1030
0021
1030
,
0101
1000
0101
0010
0100
0001
0100
0001
,
0102
0103
1002
0103
,
1010
0100
1010
0001
0010
1000
0010
1000
,
2010
3010
2100
3010
,
0100
0010
0100
1001
0000
0100
0001
0100
,
0200
0000
0000
0000
0301
0000
0000
0000
0210
0000
0000
0000
0301
0000
0000
0001
,
0001
1000
0001
0110
0000
0001
0010
0001
,
0002
0000
0000
0000
0013
0000
0000
0000
1002
0000
0000
0000
0013
0000
0000
0010
,
0010
0100
0010
1001
0000
0010
1000
0010
,
0020
0000
0000
0000
1030
0000
0000
0000
0120
0000
0000
0000
1030
0000
0000
1000
,
1000
0001
1000
0110
0000
1000
0100
1000
,
2000
3100
2001
3100
,
0100
0001
0001
0001
0011
0010
0010
0010
0000
0010
0010
0010
1010
1000
1000
1000
,
0000
1000
1000
1000
1100
0100
0100
0100
1000
0100
0100
0100
0021
0001
0001
0001
,
0030
0001
0001
0001
0101
0100
0100
0100
0000
0100
0100
0100
1100
1000
1000
1000
,
0000
1000
1000
1000
1010
0010
0010
0010
1000
0010
0010
0010
0201
0001
0001
0001
,
0300
0010
0010
0010
1010
0010
0010
0010
0110
0100
0100
0100
1100
0100
0100
0100
,
0000
1000
1000
1000
1001
1000
1000
1000
1001
0001
0001
0001
1001
0001
0001
0001
,
0000
1000
0100
0010
1100
1000
0100
0010
0011
0001
0010
0100
1001
0001
0010
0100
,
0000
1000
0010
0100
0110
1000
0010
0100
0101
0001
0100
0010
1001
0001
0100
0010
,
0001
1000
0001
0100
0011
1000
0001
0010
0100
0010
0000
0010
1001
0000
0001
0000
,
1000
0100
0010
0001
1010
0100
0010
1000
0001
1000
0000
1000
0101
0000
0010
0000
,
0001
0010
0100
1000
0101
0010
0100
0001
1000
0001
0000
0001
0110
0000
0100
0000
,
0100
0001
1000
0010
1100
0001
1000
0100
0001
0100
0000
0100
1001
0000
1000
0000
,
1010
0100
0010
0001
1010
0100
0010
1000
0101
1000
0000
1000
0110
0000
0010
0000
,
0110
0001
1000
0010
1100
0001
1000
0100
1010
0100
0000
0100
0011
0000
1000
0000
,
0110
1000
0001
0100
0011
1000
0001
0010
0101
0010
0000
0010
1001
0000
0001
0000
,
1001
0010
0100
1000
0101
0010
0100
0001
0110
0001
0000
0001
0110
0000
0100
0000
,
0210
0001
0010
1000
0000
1000
0320
1030
,
0202
0000
0300
0003
2020
0000
3030
0000
,
2100
0001
0010
0100
0000
0010
3200
0310
,
2020
0000
3000
0030
2002
0000
3003
0000
,
2100
0001
0010
0100
0000
0100
3020
0130
,
2002
0000
3000
0003
2020
0000
3030
0000
,
1200
0001
0010
1000
0000
1000
0320
1030
,
0202
0000
0000
0000
0000
0000
0300
0000
0000
0003
0000
0000
2000
0200
3020
0300
0030
0000
2000
0200
3020
0300
0030
0000
,
0200
1000
1000
1000
1000
1000
1000
1000
0000
1000
1300
1000
1020
1000
1030
1000
,
0102
1000
1000
1000
1000
1000
1003
1000
0120
1000
1000
1000
1030
1000
1000
1000
,
2000
0001
0001
0001
0001
0001
0001
0001
0000
0001
3001
0001
0201
0001
0301
0001
,
2010
0001
0001
0001
3001
0001
0001
0001
0201
0001
0001
0001
0301
0001
0001
0001
,
0000
0010
0010
0010
0110
0010
0010
0010
1100
0010
0000
0010
0010
0010
0010
0010
,
0000
0000
0000
0010
0000
0000
0010
0000
0000
0010
0000
0000
0011
0000
0000
0010
0000
0000
0010
0000
0000
0010
0000
0000
0100
0000
0010
0000
0001
0000
0000
0000
0000
0000
0000
0000
0001
0000
0010
0000
1000
0000
0000
0000
0000
0000
0000
0000
,
0000
0100
0100
0100
0110
0100
0100
0100
1001
0100
0100
0100
0100
0100
0100
0100
,
0000
0000
0000
0100
0000
0000
0000
0000
0000
0100
0000
0000
0101
0000
0000
0100
0000
0000
0100
0000
0000
0100
0000
0000
0011
0000
0100
0000
1000
0000
0000
0000
0000
0000
0000
0000
1000
0000
0100
0000
0001
0000
0000
0000
0000
0000
0000
0000
,
2001
0100
0001
0100
0010
3100
2001
3100
,
2200
0300
0010
0000
0200
0300
0001
3000
,
1002
0010
1000
0010
0100
0013
1002
0013
,
0022
0030
1000
0000
0020
0030
1000
0003
,
1200
0001
0010
0002
0303
0200
0302
0023
,
0030
0000
0000
0000
2000
0000
3000
0000
0000
0000
0000
0000
2000
0000
3000
2000
,
3020
1000
0100
2000
3030
0020
2030
3200
,
0300
0000
0000
0000
0002
0000
0003
0000
0000
0000
0000
0000
0002
0000
0003
0002
,
0023
1000
0100
2000
3030
0200
2300
3020
,
0030
0000
0000
0000
0002
0000
0003
0000
0000
0000
0000
0000
0002
0000
0003
0001
,
0002
0010
1000
0020
0033
2000
3020
0032
,
0003
0000
0000
0000
0200
0000
0300
0000
0000
0000
0000
0000
0200
0000
0300
0010
,
0201
0001
0001
0001
0001
0001
0001
0001
0300
0001
1000
0001
0011
0001
1001
0001
,
0000
0001
0001
0001
0011
0001
0001
0001
0000
0001
0000
0001
0021
0001
0031
0011
,
0102
0010
0100
0010
0100
0010
1000
0010
0003
0010
0100
0010
1010
0010
0210
0010
,
0300
0010
0010
0010
2010
0010
3010
0010
0000
0010
0000
0010
2010
0010
3010
1010
,
0102
1000
1000
1000
1003
1000
1020
1000
0030
1000
0001
1000
1010
1000
1002
1000
,
0003
1000
1000
1000
1020
1000
1030
1000
0000
1000
0000
1000
1020
1000
1030
1001
,
1010
0100
0110
0100
0110
0100
0102
0100
0003
0100
0010
0100
0101
0100
0110
0100
,
0000
0100
0100
0100
0102
0100
0103
0100
0000
0100
0000
0100
0102
0100
0103
0102
,
1013
1000
0100
1001
0100
0001
0100
0011
1010
0001
1010
0100
0001
0100
0001
0100
,
0101
1000
0010
1001
0010
0100
1000
0110
0101
1000
0101
0010
1000
0010
0010
0010
,
1001
0100
0010
1100
0001
1000
0010
0101
1001
0100
1001
0010
0100
0010
0100
0001
,
0110
1000
0001
1010
0001
0100
0001
1100
0110
0001
0110
0100
0010
0100
0010
0100
;
